Sky Connection 2016 HDTV 720p AAC 2.0 x264 | Cuộc chạm trán của những thần tượng

Thảo luận trong 'TV show HD' bắt đầu bởi gait12, 23 Tháng mười hai 2016.

  1. gait12

    gait12 Well-Known Member

    Sky Connection 2016 HDTV 720p AAC 2.0 x264
    Cuộc chạm trán của những thần tượng



    [​IMG]



    Mã:
    Format                      : MPEG-4
    
    Format profile              : Base Media / Version 2
    
    Codec ID                    : mp42 (isom/mp42)
    
    File size                   : 5.07 GiB
    
    Duration                    : 5h 38mn
    
    Overall bit rate mode       : Variable
    
    Overall bit rate            : 2 145 Kbps
    
    Encoded date                : UTC 2016-12-21 17:47:02
    
    Tagged date                 : UTC 2016-12-21 17:47:02
    
    gsst                        : 0
    
    gstd                        : 20296748
    
    
    
    Video
    
    ID                          : 1
    
    Format                      : AVC
    
    Format/Info                 : Advanced Video Codec
    
    Format profile              : Main@L3.1
    
    Format settings, CABAC      : Yes
    
    Format settings, ReFrames   : 3 frames
    
    Codec ID                    : avc1
    
    Codec ID/Info               : Advanced Video Coding
    
    Duration                    : 5h 38mn
    
    Bit rate                    : 2 016 Kbps
    
    Width                       : 1 280 pixels
    
    Height                      : 720 pixels
    
    Display aspect ratio        : 16:9
    
    Frame rate mode             : Constant
    
    Frame rate                  : 30.000 fps
    
    Color space                 : YUV
    
    Chroma subsampling          : 4:2:0
    
    Bit depth                   : 8 bits
    
    Scan type                   : Progressive
    
    Bits/(Pixel*Frame)          : 0.073
    
    Stream size                 : 4.76 GiB (94%)
    
    Title                       : ISO Media file produced by Google Inc.
    
    Encoded date                : UTC 2016-12-21 17:47:02
    
    Tagged date                 : UTC 2016-12-21 17:47:02
    
    Color range                 : Limited
    
    Color primaries             : BT.709
    
    Transfer characteristics    : BT.709
    
    Matrix coefficients         : BT.709
    
    
    
    Audio
    
    ID                          : 2
    
    Format                      : AAC
    
    Format/Info                 : Advanced Audio Codec
    
    Format profile              : LC
    
    Codec ID                    : 40
    
    Duration                    : 5h 38mn
    
    Bit rate mode               : Variable
    
    Bit rate                    : 126 Kbps
    
    Channel(s)                  : 2 channels
    
    Channel positions           : Front: L R
    
    Sampling rate               : 44.1 KHz
    
    Frame rate                  : 43.066 fps (1024 spf)
    
    Compression mode            : Lossy
    
    Stream size                 : 304 MiB (6%)
    
    Title                       : ISO Media file produced by Google Inc.
    
    Encoded date                : UTC 2016-12-21 17:47:02
    
    
    Tagged date                 : UTC 2016-12-21 17:47:02
    



    Theo thông tin hé lộ, đêm nhạc “Sky Connection 2016” là cuộc chạm trán của các thần tượng âm nhạc tại cùng một sân khấu đẳng cấp quốc tế lần đầu tiên tại Việt Nam : Michael Leans To Rock và Wonder Girls. Nếu như MLTR được biết đến là nhóm nhạc nổi tiếng của Đan Mạch từng làm mưa làm gió với những hit đình đám như: “Sleeping Child”, “25 Minutes”, “Take Me To Your Heart”,... thì Wonder Girls lại gây tiếng vang với thế hệ người yêu nhạc bởi phong cách retro pop ấn tượng, được các bạn trẻ châu Á và thế giới yêu thích. Các bản hits như: “Nobody”, “Tell Me”, “So Hot”... đã giúp Wonder Girls trở thành nhóm nhạc Hàn Quốc đầu tiên có ca khúc lọt vào Bảng xếp hạng âm nhạc Billboard nổi tiếng xứ cờ hoa.




Chia sẻ trang này