[ Hoạt Hình ] Puss In Boots 2011 720p BluRay x264-650MB SubViet Chuẩn STH-ET

Thảo luận trong 'm-HD' bắt đầu bởi kulee, 25 Tháng ba 2012.

  1. kulee

    kulee Moderator

    Encoder and upload by zero2011
    STH-Encoder Team

    [​IMG]
    [​IMG]


    Mã:
    [FONT=Georgia][COLOR=#800080][SIZE=2][I]
          Complete name : Puss.In.Boots.2011.720p.BluRay.x264.zero2011-shoptinhoc.com.mkv
          Format : Matroska
          File size : 646 MiB
          Duration : 1h 30mn
          Overall bit rate : 1 001 Kbps
          Encoded date : UTC 2012-03-10 12:23:02
          Writing application : mkvmerge v5.2.1 ('A Far Off Place') built on Jan  2 2012 23:21:10
          Writing library : libebml v1.2.3 + libmatroska v1.3.0
       Video #1
          ID : 1
          Format : AVC
          Format/Info : Advanced Video Codec
          Format profile : High@L3.1
          Format settings, CABAC : Yes
          Format settings, ReFrames : 4 frames
          Muxing mode : Container profile=Unknown@3.1
          Codec ID : V_MPEG4/ISO/AVC
          Duration : 1h 30mn
          Bit rate : 598 Kbps
          Nominal bit rate : 616 Kbps
          Width : 1 280 pixels
          Height : 544 pixels
          Display aspect ratio : 2.35:1
          Frame rate : 23.976 fps
          Resolution : 24 bits
          Colorimetry : 4:2:0
          Scan type : Progressive
          Bits/(Pixel*Frame) : 0.036
          Stream size : 385 MiB (60%)
          Writing library : x264 core 120 r2164 da19765
          Encoding settings : cabac=1 / ref=3 / deblock=1:0:0 / analyse=0x3:0x111 / me=hex / subme=7 / psy=1 / psy_rd=1.00:0.00 / mixed_ref=1 / me_range=16 / chroma_me=1 / trellis=1 / 8x8dct=1 / cqm=0 / deadzone=21,11 / fast_pskip=1 / chroma_qp_offset=-2 / threads=6 / sliced_threads=0 / nr=0 / decimate=1 / interlaced=0 / bluray_compat=0 / constrained_intra=0 / bframes=3 / b_pyramid=2 / b_adapt=1 / b_bias=0 / direct=1 / weightb=1 / open_gop=0 / weightp=2 / keyint=240 / keyint_min=23 / scenecut=40 / intra_refresh=0 / rc_lookahead=40 / rc=2pass / mbtree=1 / bitrate=616 / ratetol=1.0 / qcomp=0.60 / qpmin=0 / qpmax=69 / qpstep=4 / cplxblur=20.0 / qblur=0.5 / ip_ratio=1.40 / aq=1:1.00
       Audio #2
          ID : 2
          Format : AC-3
          Format/Info : Audio Coding 3
          Codec ID : A_AC3
          Duration : 1h 30mn
          Bit rate mode : Constant
          Bit rate : 384 Kbps
          Channel(s) : 6 channels
          Channel positions : Front: L C R, Surround: L R, LFE
          Sampling rate : 48.0 KHz
          Stream size : 248 MiB (38%)[/I][/SIZE][/COLOR][/FONT]
    IMDb Rating 6,8/10
    Đạo diễn: Chris Miller
    Diễn viên: Antonio Banderas, Salma Hayek, Zach Galifianakis
    Nhà sản xuất: DreamWorks Animation
    Quốc gia: Mỹ – Châu Âu
    Thời lượng: 1,31 phút
    Thể loại: Hoạt Hình

    [​IMG]

    [​IMG]
    [​IMG][​IMG][​IMG][​IMG][​IMG][​IMG][​IMG]
    [​IMG]

    [​IMG]
    Sub VN đã Dc Add Sẵn
  2. tung_friends

    tung_friends Moderator

Chia sẻ trang này