[Hành đông][Sub Việt] Safe House 2012 mHD Bluray AC3 x264

Thảo luận trong 'm-HD' bắt đầu bởi thuanmd, 28 Tháng năm 2012.

  1. thuanmd

    thuanmd New Member

    [​IMG]
    Giới thiệu:
    Safe House kể về nhân viên CIA trẻ tuổi Matt Weston (Ryan Reynolds) phải chấp nhận công việc trông coi 1 văn phòng bí mật(Safe House) tại thủ đô Nam Phi. Đang buồn chán vì ngồi chơi xơi nước suốt 12 tháng qua, bất ngờ Matt Weston nhận được mã an ninh cấp 4 : Safe House của anh phải tiếp nhận Tobin Frost (Denzel Washington). Từ 1 nhân viên CIA chưa từng có kinh nghiệm trận mạc, Matt Weston phải đối mặt với cả 1 đạo quân sát thủ chuyên nghiệp.
    Media Info
    Mã:
    General
    Unique ID                                : 201718540103050708746462997734991778388 (0x97C193E2542FF6AA87A09763EBE6D254)
    Complete name                            : \\xx.xx.xx.xx\Movie\HD720\Safe House 2012\Safe House 2012 mHD Bluray AC3 x264-nta139.mkv
    Format                                   : Matroska
    Format version                           : Version 2
    File size                                : 2.52 GiB
    Duration                                 : 1h 54mn
    Overall bit rate                         : 3 139 Kbps
    Encoded date                             : UTC 2012-05-24 14:51:29
    Writing application                      : mkvmerge v5.5.0 ('Healer') built on Apr  6 2012 21:43:24
    Writing library                          : libebml v1.2.3 + libmatroska v1.3.0
    
    Video
    ID                                       : 1
    Format                                   : AVC
    Format/Info                              : Advanced Video Codec
    Format profile                           : High@L4.1
    Format settings, CABAC                   : Yes
    Format settings, ReFrames                : 11 frames
    Codec ID                                 : V_MPEG4/ISO/AVC
    Duration                                 : 1h 54mn
    Bit rate                                 : 2 628 Kbps
    Width                                    : 1 280 pixels
    Height                                   : 534 pixels
    Display aspect ratio                     : 2.40:1
    Frame rate                               : 23.976 fps
    Color space                              : YUV
    Chroma subsampling                       : 4:2:0
    Bit depth                                : 8 bits
    Scan type                                : Progressive
    Bits/(Pixel*Frame)                       : 0.160
    Stream size                              : 2.11 GiB (84%)
    Writing library                          : x264 core 124 r2197 69a0443
    Encoding settings                        : cabac=1 / ref=11 / deblock=1:-3:-3 / analyse=0x3:0x113 / me=umh / subme=9 / psy=1 / psy_rd=1.10:0.00 / mixed_ref=1 / me_range=16 / chroma_me=1 / trellis=2 / 8x8dct=1 / cqm=0 / deadzone=21,11 / fast_pskip=0 / chroma_qp_offset=-2 / threads=12 / sliced_threads=0 / nr=0 / decimate=0 / interlaced=0 / bluray_compat=0 / constrained_intra=0 / bframes=7 / b_pyramid=2 / b_adapt=2 / b_bias=0 / direct=3 / weightb=1 / open_gop=0 / weightp=2 / keyint=250 / keyint_min=23 / scenecut=40 / intra_refresh=0 / rc=crf / mbtree=0 / crf=23.7 / qcomp=0.60 / qpmin=0 / qpmax=69 / qpstep=4 / ip_ratio=1.40 / pb_ratio=1.30 / aq=1:0.65
    Language                                 : English
    Default                                  : Yes
    Forced                                   : No
    
    Audio
    ID                                       : 2
    Format                                   : AC-3
    Format/Info                              : Audio Coding 3
    Mode extension                           : CM (complete main)
    Format settings, Endianness              : Big
    Codec ID                                 : A_AC3
    Duration                                 : 1h 54mn
    Bit rate mode                            : Constant
    Bit rate                                 : 448 Kbps
    Channel(s)                               : 6 channels
    Channel positions                        : Front: L C R, Side: L R, LFE
    Sampling rate                            : 48.0 KHz
    Bit depth                                : 16 bits
    Compression mode                         : Lossy
    Stream size                              : 368 MiB (14%)
    Language                                 : English
    Default                                  : Yes
    Forced                                   : No
    
    Text
    ID                                       : 3
    Format                                   : PGS
    Muxing mode                              : zlib
    Codec ID                                 : S_HDMV/PGS
    Codec ID/Info                            : The same subtitle format used on BDs/HD-DVDs
    Language                                 : English
    Default                                  : No
    Forced                                   : No
    
    Menu
    00:00:00.000                             : en:00:00:00.000
    00:04:52.000                             : en:00:04:52.000
    00:13:44.615                             : en:00:13:44.615
    00:18:44.457                             : en:00:18:44.457
    00:23:58.228                             : en:00:23:58.228
    00:29:26.932                             : en:00:29:26.932
    00:37:19.988                             : en:00:37:19.988
    00:41:23.981                             : en:00:41:23.981
    00:48:29.031                             : en:00:48:29.031
    00:56:48.780                             : en:00:56:48.780
    01:00:53.984                             : en:01:00:53.984
    01:07:02.310                             : en:01:07:02.310
    01:11:17.982                             : en:01:11:17.982
    01:16:25.581                             : en:01:16:25.581
    01:21:23.128                             : en:01:21:23.128
    01:26:14.002                             : en:01:26:14.002
    01:29:25.110                             : en:01:29:25.110
    01:35:34.479                             : en:01:35:34.479
    01:44:25.217                             : en:01:44:25.217
    01:49:44.203                             : en:01:49:44.203
    

    screen short
    [​IMG]
    Link download
    http://up.4share.vn/d/291b1a1c1d1b191e

    Các file đính kèm:

Chia sẻ trang này