[Hài hước] Princess and The Seven Kungfu Masters 2013 720p HDRip x264 AAC-DWR - Giang Hồ Thất Quái

Thảo luận trong 'm-HD' bắt đầu bởi phonghanh, 14 Tháng ba 2013.

  1. phonghanh

    phonghanh Moderator

    [​IMG]


    Mã:
    Format : MPEG-4
        Format profile : Base Media
        Codec ID : isom
        File size : 1.03 GiB
        Duration : 1h 30mn
        Overall bit rate mode : Variable
        Overall bit rate : 1 623 Kbps
        Encoded date : UTC 2013-03-09 11:05:36
        Tagged date : UTC 2013-03-09 11:05:36
     Video #1
        ID : 1
        Format : AVC
        Format/Info : Advanced Video Codec
        Format profile : High@L4.1
        Format settings, CABAC : Yes
        Format settings, ReFrames : 11 frames
        Codec ID : avc1
        Codec ID/Info : Advanced Video Coding
        Duration : 1h 30mn
        Bit rate : 1 500 Kbps
        Maximum bit rate : 5 318 Kbps
        Width : 1 280 pixels
        Height : 544 pixels
        Display aspect ratio : 2.35:1
        Frame rate mode : Constant
        Frame rate : 23.976 fps
        Color space : YUV
        Chroma subsampling : 4:2:0
        Bit depth : 8 bits
        Scan type : Progressive
        Bits/(Pixel*Frame) : 0.090
        Stream size : 965 MiB (92%)
        Writing library : x264 core 129 r2230 1cffe9f
     Audio #2
        ID : 2
        Format : AAC
        Format/Info : Advanced Audio Codec
        Format profile : LC
        Codec ID : 40
        Duration : 1h 30mn
        Bit rate mode : Variable
        Bit rate : 128 Kbps
        Maximum bit rate : 147 Kbps
        Channel(s) : 2 channels
        Channel positions : Front: L R
        Sampling rate : 48.0 KHz
        Compression mode : Lossy
        Stream size : 82.9 MiB (8%)
        Encoded date : UTC 2013-03-09 11:06:04
        Tagged date : UTC 2013-03-09 11:06:11

    [​IMG]






    dongksxd888 thích bài này.

Chia sẻ trang này