[Hài hước] Mr and Mrs Incredible 2011 mHD-720p Bluray AC3 x264-TRiM - Thần kỳ hiệp lữ

Thảo luận trong 'm-HD' bắt đầu bởi phonghanh, 25 Tháng ba 2013.

  1. phonghanh

    phonghanh Moderator

    [​IMG]


    Mã:
    Video
    ID                               : 1
    Format                           : AVC
    Format/Info                      : Advanced Video Codec
    Format profile                   : High@L4.1
    Format settings, CABAC           : Yes
    Format settings, ReFrames        : 4 frames
    Codec ID                         : V_MPEG4/ISO/AVC
    Duration                         : 1h 40mn
    Bit rate                         : 2 200 Kbps
    Width                            : 1 280 pixels
    Height                           : 544 pixels
    Display aspect ratio             : 2.35:1
    Frame rate                       : 24.000 fps
    Color space                      : YUV
    Chroma subsampling               : 4: 2:0
    Bit depth                        : 8 bits
    Scan type                        : Progressive
    Bits/(Pixel*Frame)               : 0.132
    Stream size                      : 1.50 GiB (75%)
    
    
    Audio
    ID                               : 2
    Format                           : AC-3
    Format/Info                      : Audio Coding 3
    Mode extension                   : CM (complete main)
    Codec ID                         : A_AC3
    Duration                         : 1h 40mn
    Bit rate mode                    : Constant
    Bit rate                         : 640 Kbps
    Channel(s)                       : 6 channels
    Channel positions                : Front: L C R, Side: L R, LFE
    Sampling rate                    : 48.0 KHz
    Bit depth                        : 16 bits
    Compression mode                 : Lossy
    Stream size                      : 459 MiB (23%)
    Language                         : Chinese
    Source: Mr and Mrs Incredible 2011 BluRay 1080p AC3 2Audio x264-CHD
    Encoder : 9999

    [​IMG]






Chia sẻ trang này